<?xml version="1.0" standalone="no"?>
<!DOCTYPE svg PUBLIC "-//W3C//DTD SVG 1.1//EN" "http://www.w3.org/Graphics/SVG/1.1/DTD/svg11.dtd" >
<svg xmlns="http://www.w3.org/2000/svg">
<metadata>Generated by IcoMoon</metadata>
<defs>
<font id="optilink" horiz-adv-x="1024">
<font-face units-per-em="1024" ascent="960" descent="-64" />
<missing-glyph horiz-adv-x="1024" />
<glyph unicode="&#x20;" horiz-adv-x="512" d="" />
<glyph unicode="&#xe900;" glyph-name="graph" d="M1000.235 15.403h-896.384l85.504 85.589c5.547-2.219 11.605-3.413 17.621-3.413 15.659 0 29.867 7.296 38.784 18.603l96.896-25.301c3.84-23.893 24.576-41.941 49.365-41.941 27.733 0 50.133 22.443 50.133 50.133 0 7.211-1.707 14.208-4.565 20.523 0 0.171 0 0.171 0 0.171l200.235 226.987c4.779-1.408 9.643-2.176 14.677-2.176 27.477 0 50.133 22.4 50.133 50.176 0 13.44-5.291 25.728-14.208 34.901l135.637 343.125c26.539 1.195 48 23.125 48 50.091 0 27.733-22.656 50.133-50.176 50.133-27.648 0-50.133-22.4-50.133-50.133 0-13.227 5.333-25.771 14.251-34.901l-135.68-343.125c-26.752-1.195-47.957-23.381-47.957-50.091 0-7.296 1.451-14.251 4.395-20.779 0-0.171 0-0.171 0-0.171l-200.021-227.029c-4.821 1.707-9.643 2.432-14.72 2.432-15.403 0-29.867-7.253-39.040-18.731l-96.64 25.515c-3.84 23.637-24.576 41.941-49.408 41.941-27.477 0-49.877-22.699-49.877-50.133 0-6.229 0.939-12.288 3.115-17.877l-82.859-82.901v892.501c0.043 11.349-9.131 20.48-20.437 20.48s-20.48-9.131-20.48-20.48v-12.032h-15.957c-11.307 0-20.437-9.429-20.437-20.523 0-11.563 9.131-20.693 20.437-20.693h15.957v-143.147h-15.957c-11.307 0-20.437-9.131-20.437-20.48 0-11.307 9.131-20.48 20.437-20.48h15.957v-140.928h-15.957c-11.307 0-20.437-9.216-20.437-20.523 0-11.349 9.131-20.48 20.437-20.48h15.957v-139.733h-15.957c-11.307 0-20.437-9.216-20.437-20.48 0-11.349 9.131-20.523 20.437-20.523h15.957v-141.867h-15.957c-11.307 0-20.437-9.216-20.437-20.48 0-11.349 9.131-20.523 20.437-20.523h15.957v-141.227h-15.957c-11.307 0-20.437-9.131-20.437-20.437s9.131-20.437 20.437-20.437h15.957v-14.976c0-11.093 9.131-20.267 20.437-20.267s20.48 9.173 20.48 20.267v14.976h141.653v-14.976c0-11.349 9.173-20.437 20.48-20.437s20.693 9.131 20.693 20.437v14.976h139.52v-14.976c0-11.349 9.173-20.437 20.48-20.437 11.349 0 20.48 9.131 20.48 20.437v14.976h141.227v-14.976c0-11.349 9.173-20.437 20.437-20.437 11.349 0 20.48 9.131 20.48 20.437v14.976h143.104v-14.976c0-11.349 9.173-20.437 20.48-20.437s20.437 9.131 20.437 20.437v14.976h141.909v-14.976c0-11.349 9.216-20.437 20.437-20.437 11.435 0 20.523 9.131 20.523 20.437v14.976h10.368c11.307 0 20.437 9.131 20.437 20.437s-8.917 20.437-20.224 20.437zM821.888 832.043c5.077 0 9.173-4.096 9.173-9.173 0-6.016-6.016-11.093-12.459-8.405-2.901 1.195-5.845 4.096-5.845 8.405 0 5.077 4.053 9.173 9.131 9.173zM652.501 403.669c1.195 0 2.176 0 3.413-0.768 3.328-1.195 5.504-4.565 5.504-8.149 0-5.077-3.883-9.173-8.917-9.173-2.901 0-4.821 1.152-6.059 2.389-1.152 0.939-3.072 3.115-3.072 6.784 0 5.035 4.096 8.917 9.131 8.917zM383.36 101.461c0.981 3.883 4.565 6.485 8.661 6.485 2.901 0 4.864-1.152 6.016-2.133 1.195-0.939 3.157-3.157 3.157-6.784 0-5.077-4.096-9.131-9.173-9.131-5.035 0-9.131 4.053-9.131 9.131 0 0.768 0.213 1.451 0.469 2.432zM206.976 156.629c5.035 0 9.173-3.797 9.173-8.875 0-1.195-0.256-1.707-0.256-2.475-1.195-3.797-4.821-6.699-8.917-6.699-3.115 0-5.333 1.707-6.272 2.688-0.981 0.896-2.645 3.072-2.645 6.485 0 5.077 4.096 8.875 8.917 8.875z" />
<glyph unicode="&#xe901;" d="M993.195 701.312v-141.397h10.411c11.307 0 20.523-9.173 20.523-20.565 0-11.349-9.259-20.523-20.523-20.523h-10.411v-140.203h10.411c11.307 0 20.523-9.216 20.523-20.565s-9.259-20.48-20.523-20.48h-10.411v-142.421h10.411c11.307 0 20.523-9.173 20.523-20.565 0-11.349-9.259-20.523-20.523-20.523h-10.411v-141.696h-41.088v927.104c0 11.307 9.173 20.523 20.565 20.523 11.349 0 20.523-9.216 20.523-20.523v-12.117h10.411c11.307 0 20.523-9.429 20.523-20.565 0-11.563-9.259-20.779-20.523-20.779h-10.411v-143.616h10.411c11.307 0 20.523-9.173 20.523-20.523 0-11.435-9.259-20.565-20.523-20.565h-10.411z" />
<glyph unicode="&#xe902;" d="M584.107 345.899c-4.139-3.669-8.704-5.376-13.525-5.376-5.845 0-11.605 2.432-15.445 7.040l-147.029 167.808c-4.864-1.451-9.685-2.133-14.763-2.133-7.040 0-13.525 1.408-19.584 3.84h-0.256l-117.973-108.544c1.707-4.821 2.688-10.411 2.688-15.957 0-27.563-22.741-50.048-50.304-50.048-26.581 0-48.384 20.565-50.048 46.379l-80.299 29.056v43.563l94.293-33.877c9.173 9.472 22.016 15.232 36.053 15.232 6.997 0 13.781-1.493 19.797-4.139l118.229 108.8c-1.707 5.12-2.688 10.411-2.688 15.957 0 27.563 22.485 50.048 50.048 50.048 27.819 0 50.304-22.485 50.304-50.048 0-7.509-1.707-14.507-4.608-21.035l146.773-167.552c7.765-8.704 6.827-21.76-1.664-29.013z" />
<glyph unicode="&#xe903;" d="M684.416 265.173c0-16.354-13.257-29.611-29.611-29.611s-29.611 13.257-29.611 29.611c0 16.354 13.257 29.611 29.611 29.611s29.611-13.257 29.611-29.611z" />
<glyph unicode="&#xe904;" d="M824.747 345.472c-16.469 0-29.696-13.355-29.696-29.781s13.269-29.739 29.696-29.739c16.427 0 29.696 13.355 29.696 29.739s-13.269 29.781-29.696 29.781zM824.747 306.517c-5.077 0-9.173 4.139-9.173 9.173 0 5.12 4.096 9.173 9.173 9.173 5.035 0 9.216-4.053 9.216-9.173 0-5.077-4.181-9.173-9.216-9.173z" />
<glyph unicode="&#xe905;" d="M874.965 315.648c0-27.776-22.485-50.261-50.304-50.261-15.189 0-28.715 6.699-38.187 17.621l-81.963-24.405c-3.2-24.704-24.192-43.776-49.835-43.776-27.563 0-50.091 22.699-50.091 50.347 0 7.253 1.451 13.995 4.139 20.309l-10.667 11.819 27.392 31.147 13.781-15.445c4.821 1.451 10.112 2.432 15.445 2.432 15.189 0 28.8-6.741 37.931-17.408l82.219 24.448c3.456 24.661 24.448 43.477 49.835 43.477 27.776-0.043 50.304-22.485 50.304-50.304z" />
<glyph unicode="&#xe906;" d="M833.963 315.648c0-5.066-4.107-9.173-9.173-9.173s-9.173 4.107-9.173 9.173c0 5.066 4.107 9.173 9.173 9.173s9.173-4.107 9.173-9.173z" />
<glyph unicode="&#xe907;" d="M833.877 822.4c0-6.016-5.547-10.624-11.819-8.704-0.299 0-0.555 0.213-0.768 0.213-0.256 0-0.256 0.256-0.512 0.256-2.389 1.237-5.077 4.096-5.077 8.192 0 4.864 4.181 8.917 8.96 8.917 5.077 0.085 9.216-4.011 9.216-8.875z" />
<glyph unicode="&#xe908;" d="M1003.605 12.203h-899.157l85.547 85.888c5.547-2.432 11.605-3.413 17.92-3.413 15.445 0 29.739 7.253 38.912 18.645l97.195-25.387c3.883-23.936 24.661-42.112 49.323-42.112 27.819 0 50.304 22.485 50.304 50.304 0 7.253-1.451 14.251-4.395 20.779l200.661 228.011c4.821-1.664 9.771-2.432 14.805-2.432 27.776 0 50.304 22.443 50.304 50.048 0 13.525-5.035 25.899-13.995 35.072l136.107 344.576c26.581 1.408 47.829 23.168 47.829 50.261 0 27.563-22.485 50.048-50.304 50.048-27.563 0-50.048-22.485-50.048-50.048 0-13.312 5.333-26.112 14.293-34.816v-0.213l-136.661-344.533c-26.283-1.493-47.616-23.168-47.616-50.304 0-7.253 1.451-13.995 4.395-20.565v-0.213l-24.917-28.331-2.901-3.413-172.885-196.309h-0.213c-4.864 1.749-9.685 2.475-14.763 2.475-15.445 0-29.739-7.040-38.955-18.645l-96.939 25.6c-3.883 23.723-24.875 41.856-49.579 41.856-27.819 0-50.304-22.528-50.304-50.091 0-6.229 1.195-12.331 3.371-17.92l-83.413-83.371v895.829c0.043 11.307-9.088 20.523-20.48 20.523-11.349 0-20.565-9.216-20.565-20.523v-12.117h-15.957c-11.349 0-20.523-9.429-20.523-20.565 0-11.563 9.173-20.779 20.565-20.779h15.957v-143.616h-16c-11.349 0-20.523-9.173-20.523-20.523 0-11.435 9.173-20.565 20.565-20.565h15.957v-141.397h-16c-11.349-0.043-20.523-9.216-20.523-20.608 0-11.349 9.173-20.523 20.565-20.523h15.957v-140.203h-16c-11.349-0.043-20.523-9.259-20.523-20.608s9.173-20.48 20.565-20.48h15.957v-142.421h-16c-11.349-0.043-20.523-9.216-20.523-20.608 0-11.349 9.173-20.523 20.565-20.523h15.957v-141.696h-16c-11.349-0.043-20.523-9.216-20.523-20.565s9.173-20.48 20.565-20.48h15.957v-15.061c0-11.093 9.216-20.309 20.565-20.309 11.392 0 20.523 9.216 20.523 20.309v15.061h142.123v-15.061c0-11.392 9.173-20.523 20.523-20.523 11.392 0 20.821 9.173 20.821 20.523v15.061h139.989v-15.061c0-11.392 9.216-20.523 20.565-20.523 11.392 0 20.565 9.173 20.565 20.523v15.061h141.653v-15.061c0-11.392 9.173-20.523 20.523-20.523s20.565 9.173 20.565 20.523v15.061h143.616v-15.061c0-11.392 9.131-20.523 20.48-20.523s20.565 9.173 20.565 20.523v15.061h142.421v-15.061c0-11.392 9.173-20.523 20.523-20.523s20.523 9.173 20.523 20.523v15.061h10.411c11.307 0 20.523 9.173 20.523 20.48 0.171 11.349-9.088 20.523-20.395 20.523zM833.877 822.4c0-6.016-5.547-10.624-11.819-8.704-0.299 0-0.555 0.213-0.768 0.213-0.256 0-0.256 0.256-0.512 0.256-2.389 1.237-5.077 4.096-5.077 8.192 0 4.864 4.181 8.917 8.96 8.917 5.077 0.085 9.216-4.011 9.216-8.875zM654.72 401.749c0.939 0 1.92-0.213 3.157-0.768 0.213 0 0.213 0 0.469 0l0.256-0.213c3.115-1.195 5.333-4.395 5.333-8.235 0-4.779-4.096-8.917-9.216-8.917-2.475 0-4.352 0.939-5.547 1.92-0.256 0-0.256 0.256-0.512 0.256-0.256 0.213-0.469 0.469-0.939 0.939-0.768 1.152-2.005 3.371-2.005 5.803 0 5.077 4.139 9.216 9.003 9.216zM384.683 98.347c0.939 4.096 4.565 6.741 8.704 6.741 2.901 0 4.821-1.195 6.059-2.176 1.195-0.981 3.115-3.371 3.115-6.784 0-5.035-4.096-9.173-9.173-9.173-4.864 0-8.96 4.139-8.96 9.173-0.043 0.725-0.043 1.451 0.256 2.219zM207.915 153.899c5.077 0 8.917-4.096 8.917-8.96 0-1.195 0-1.963-0.213-2.389-0.981-4.139-4.608-6.784-8.704-6.784-3.413 0-5.589 1.707-6.528 2.688s-2.688 3.115-2.688 6.485c0 4.907 4.096 8.96 9.216 8.96z" />
<glyph unicode="&#xe909;" glyph-name="pie-chart" d="M125.44 783.787l0.427-0.427c2.133 2.987 4.693 5.973 7.68 8.533l-8.107-8.107zM864.427 818.773c6.016-5.547 11.563-11.093 17.067-17.067l0.427 0.427-17.493 16.64zM881.493 801.707c-5.547 5.973-11.093 11.52-17.067 17.067-95.147 91.307-220.16 141.227-352.427 141.227-141.653 0-273.493-56.747-370.773-159.573-2.56-2.56-5.12-5.547-7.68-8.533-2.987-2.56-5.547-5.547-7.68-8.533-81.493-93.013-125.867-211.2-125.867-335.36 0-282.453 229.547-512 512-512s512 229.547 512 512c0 133.547-50.347 258.56-142.507 353.707zM242.773 826.88c3.413 2.56 6.827 5.12 10.24 7.253 4.267 3.413 8.96 6.4 13.653 8.96 6.827 4.267 13.227 8.107 20.053 11.947 36.693 20.48 76.373 35.84 117.76 45.653 5.973 1.28 11.947 2.56 18.347 3.84 5.973 1.28 11.947 2.133 17.92 2.987 7.68 1.28 15.36 2.133 23.467 2.987 15.787 1.707 31.573 2.56 47.787 2.56 8.96 0 18.347-0.427 27.307-0.853 5.547-0.427 11.136-0.853 17.067-1.28 9.387-0.853 19.2-2.133 28.587-3.84 5.12-0.427 10.24-1.28 15.36-2.56 7.253-1.28 14.507-2.987 21.76-4.693 6.827-1.707 13.653-3.413 20.437-5.12 24.32-7.253 47.787-16.213 70.827-27.733 5.547-2.56 11.136-5.12 16.213-8.107 17.92-9.387 35.413-20.053 52.096-32 11.093-8.107 22.187-16.64 32.427-25.6l-320-320.427-302.933 303.36c16.213 15.787 33.28 29.867 51.627 42.667zM512-17.067c-256.427 0-465.067 208.64-465.067 465.067 0 111.36 39.68 218.027 112.213 302.080l334.933-335.36 354.133 354.133c83.2-86.613 128.853-199.68 128.853-320.853 0-256.427-208.64-465.067-465.067-465.067z" />
<glyph unicode="&#xe90a;" glyph-name="page" d="M703.701 426.325h-521.472c-11.947 0-21.632 9.728-21.632 21.632s9.685 21.632 21.632 21.632h521.472c11.904 0 21.632-9.685 21.632-21.589s-9.728-21.675-21.632-21.675zM841.771 274.731h-659.541c-11.947 0-21.632 9.685-21.632 21.589s9.685 21.675 21.632 21.675h659.541c11.947 0 21.632-9.771 21.632-21.675s-9.643-21.589-21.632-21.589zM841.771 123.093h-659.541c-11.947 0-21.632 9.771-21.632 21.675s9.685 21.589 21.632 21.589h659.541c11.947 0 21.632-9.685 21.632-21.589s-9.643-21.675-21.632-21.675zM925.867 822.613l-154.453 110.933c-20.907 14.933-56.747 26.453-82.347 26.453h-570.88c-33.28 0-60.16-26.88-60.16-60.16v-904.107c0-32.896 26.88-59.733 60.16-59.733h787.627c33.237 0 60.117 26.88 60.117 59.733v748.373c0.043 28.16-17.451 61.867-40.064 78.507zM900.693 787.627c5.12-3.84 9.771-10.24 14.080-17.493h-175.36c-8.96 0-16.64 7.253-16.64 16.64v122.88c8.96-2.987 17.451-6.827 23.040-11.093l154.88-110.933zM922.453-4.267c0-8.96-7.253-16.683-16.64-16.683h-787.627c-9.387 0-16.64 7.723-16.64 16.683v904.107c0 9.387 7.253 17.067 16.64 17.067h561.493v-130.133c0-33.28 26.88-60.16 59.733-60.16h183.040v-730.88z" />
<glyph unicode="&#xe90b;" glyph-name="lines" d="M956.416-64h-888.832c-37.291 0-67.584 28.971-67.584 64.597v894.805c0 35.627 30.293 64.597 67.584 64.597h888.832c37.248 0 67.584-28.971 67.584-64.597v-894.848c0-35.584-30.336-64.555-67.584-64.555zM67.584 913.408c-10.368 0-18.816-8.064-18.816-17.963v-894.848c0-9.899 8.448-18.005 18.816-18.005h888.832c10.325 0 18.773 8.064 18.773 18.005v894.805c0 9.899-8.448 17.963-18.773 17.963h-888.832zM475.307 664.747c0-12.8-11.093-23.040-24.32-23.040h-130.987v-125.44c0-12.8-11.093-23.467-24.32-23.467-13.653 0-24.747 10.667-24.747 23.467v125.44h-130.987c-13.653 0-24.32 10.24-24.32 23.040s10.667 23.467 24.32 23.467h130.987v125.013c0 12.8 11.093 23.467 24.747 23.467 13.227 0 24.32-10.667 24.32-23.467v-125.013h130.987c13.227 0 24.32-10.667 24.32-23.467zM728.192 306.475h-588.245c-13.44 0-24.363 10.453-24.363 23.339 0 12.843 10.923 23.296 24.363 23.296h588.245c13.44 0 24.363-10.453 24.363-23.296 0.043-12.885-10.88-23.339-24.363-23.339zM883.968 143.104h-744.021c-13.44 0-24.363 10.453-24.363 23.296 0 12.885 10.923 23.339 24.363 23.339h744.021c13.44 0 24.405-10.453 24.405-23.339 0-12.843-10.965-23.296-24.405-23.296z" />
<glyph unicode="&#xe90c;" d="M956.587 960h-889.173c-37.12 0-67.413-29.013-67.413-64.427v-895.147c0-19.2 8.533-36.267 22.613-47.787v221.44h26.027v721.493c0 9.813 8.533 17.92 18.773 17.92h889.173c10.24 0 18.773-8.107 18.773-17.92v-721.493h24.277v-221.867h-976.597c11.947-10.24 27.307-16.213 44.373-16.213h889.173c37.12 0 67.413 29.013 67.413 64.427v895.147c0 35.413-30.293 64.427-67.413 64.427z" />
<glyph unicode="&#xe90d;" d="M343.851 409.173v192.384h-72.96v25.728c9.515 0 18.731 0.683 27.733 2.091 9.003 1.365 17.109 3.968 24.405 7.765 7.253 3.755 13.397 8.96 18.432 15.531s8.448 14.891 10.283 25.003h25.771v-268.501h-33.664z" />
<glyph unicode="&#xe90e;" d="M533.76 451.2v-42.027h-43.989v42.027h43.989z" />
<glyph unicode="&#xe90f;" d="M588.843 620.459c3.712 11.605 9.472 21.632 17.237 30.123s17.493 15.104 29.141 19.883c11.648 4.779 24.875 7.211 39.68 7.211 12.16 0 23.595-1.707 34.304-5.12s20.011-8.32 27.947-14.763c7.936-6.443 14.208-14.464 18.816-24.021 4.608-9.6 6.912-20.693 6.912-33.323 0-11.861-1.92-22.315-5.76-31.445-3.84-9.088-8.917-17.237-15.232-24.405s-13.611-13.696-21.803-19.499c-8.192-5.803-16.683-11.392-25.387-16.683-8.747-5.077-17.451-10.027-26.155-14.976-8.747-4.949-16.768-10.155-24.021-15.744-7.253-5.547-13.44-11.563-18.645-17.963s-8.533-13.824-10.112-22.187h144.341v-28.373h-183.595c1.323 15.915 4.309 29.44 8.917 40.704s10.539 21.035 17.664 29.355 15.147 15.659 24.149 21.973 18.389 12.245 28.16 17.792c11.861 7.083 22.315 13.568 31.275 19.499 9.003 5.931 16.469 11.947 22.4 18.005 5.973 6.059 10.411 12.587 13.44 19.669s4.565 15.275 4.565 24.619c0 7.296-1.451 13.952-4.395 19.883s-6.784 11.051-11.648 15.317c-4.907 4.309-10.667 7.595-17.237 9.856-6.613 2.261-13.611 3.413-21.035 3.413-9.771 0-18.176-1.963-25.173-5.845-6.997-3.925-12.757-9.045-17.237-15.36s-7.723-13.44-9.728-21.376c-1.963-7.936-2.816-15.957-2.603-24.021h-33.664c-0.64 13.568 0.768 26.197 4.48 37.803z" />
<glyph unicode="&#xe910;" d="M22.613 174.080v-221.867h977.067v221.867h-977.067zM490.667 62.72c0-0.427 0-1.237-0.427-1.707-0.427-0.427-0.427-1.237-0.853-1.707-0.427-0.427-0.853-0.853-1.28-1.707l-14.933-14.507-70.827-66.987c-1.707-2.176-4.267-2.603-6.827-2.603-2.133 0-4.693 0.427-6.4 2.603-2.133 1.707-2.987 3.84-2.987 6.357v60.587h-87.893c-11.947 0-21.76 9.429-21.76 20.907 0 11.947 9.813 21.333 21.76 21.333h87.893v60.587c0 2.603 0.853 4.693 2.987 6.4 1.707 1.707 4.267 2.944 6.4 2.944 2.56 0 5.12-1.237 6.827-2.944l70.4-66.987 15.36-14.507c1.707-2.133 2.987-4.309 2.987-6.827 0-0.384 0-0.811-0.427-1.237zM725.76 43.093h-88.32v-60.587c0-2.56-0.469-4.651-2.603-6.357-1.707-2.176-4.267-2.603-6.357-2.603-2.603 0-5.12 0.427-6.827 2.603l-6.827 6.357-63.573 60.587-15.36 14.507c-2.133 2.133-2.987 4.267-2.987 6.4 0 0.853 0 1.28 0.427 1.707 0 0.427 0 1.28 0.427 1.707 0 0.853 0.427 1.28 0.896 1.707 0 0.427 0.853 1.28 1.237 1.707l14.976 14.507 70.827 66.987c1.707 2.133 4.267 2.944 6.827 2.944 2.133 0 4.651-0.853 6.357-2.944 2.133-1.707 2.603-3.84 2.603-6.4v-60.587h88.277c11.947 0 21.76-9.387 21.76-21.333 0-11.52-9.813-20.907-21.76-20.907z" />
<glyph unicode="&#xe911;" glyph-name="bar-chart" d="M1024-8.149c0-11.349-9.173-20.48-20.48-20.48h-925.909v-15.019c0-11.179-9.173-20.352-20.565-20.352-11.349 0-20.523 9.173-20.523 20.352v15.019h-16c-11.349-0.043-20.523 9.131-20.523 20.48 0 11.435 9.173 20.565 20.523 20.565h15.957v141.568h-15.957c-11.349 0-20.523 9.259-20.523 20.608s9.173 20.565 20.523 20.565h15.957v142.336h-15.957c-11.349 0-20.523 9.216-20.523 20.608 0 11.349 9.173 20.48 20.523 20.48h15.957v140.245h-15.957c-11.349 0-20.523 9.173-20.523 20.565s9.173 20.523 20.523 20.523h15.957v141.44h-15.957c-11.349 0-20.523 9.173-20.523 20.523s9.173 20.523 20.523 20.523h15.957v143.616h-15.957c-11.349 0-20.523 9.216-20.523 20.821 0 11.093 9.173 20.523 20.523 20.523h15.957v12.117c0 11.349 9.216 20.523 20.565 20.523 11.392 0 20.565-9.173 20.565-20.523v-927.061h119.424v635.733h170.197v-635.733h85.035v853.333h169.984v-853.333h84.352v676.608h170.155v-676.608h126.763c11.307 0 20.48-9.173 20.48-20.565z" />
<glyph unicode="&#xe912;" glyph-name="gantt-chart" d="M1024-8.235c0-11.349-9.173-20.48-20.523-20.48h-10.368v-15.019c0-11.392-9.216-20.523-20.565-20.523s-20.523 9.173-20.523 20.523v15.019h-142.379v-15.019c0-11.392-9.216-20.523-20.565-20.523s-20.523 9.173-20.523 20.523v15.019h-143.573v-15.019c0-11.392-9.216-20.523-20.523-20.523s-20.523 9.173-20.523 20.523v15.019h-141.653v-15.019c0-11.392-9.173-20.523-20.523-20.523s-20.693 9.131-20.693 20.523v15.019h-139.989v-15.019c0-11.392-9.429-20.523-20.779-20.523-11.392 0-20.523 9.173-20.523 20.523v15.019h-142.208v-15.019c0-11.093-9.173-20.309-20.565-20.309-11.349 0-20.523 9.216-20.523 20.309v15.019h-15.957c-11.349-0.043-20.523 9.131-20.523 20.48 0 11.435 9.173 20.565 20.523 20.565h15.957v927.104c0 11.307 9.173 20.565 20.523 20.565 11.392 0 20.565-9.259 20.565-20.565v-927.104h925.867c11.392 0 20.565-9.173 20.565-20.565zM141.909 263.637h548.011v-170.752h-548.011v170.752zM764.8 263.637h121.301v-170.752h-121.301v170.752zM514.005 519.125h438.827v-170.752h-438.827v170.752zM208.64 519.125h121.344v-170.752h-121.344v170.752zM141.909 775.339h376.661v-170.795h-376.661v170.795zM610.688 775.339h376.661v-170.795h-376.661v170.795z" />
<glyph unicode="&#xe913;" d="M77.611 568.576v-186.411h925.867c11.392 0 20.523-9.387 20.523-20.992s-9.173-20.992-20.523-20.992h-10.411v-15.317c0-11.605-9.173-20.992-20.523-20.992s-20.523 9.387-20.523 20.992v15.317h-142.379v-15.317c0-11.605-9.216-20.992-20.523-20.992-11.392 0-20.565 9.387-20.565 20.992v15.317h-143.531v-15.317c0-11.605-9.216-20.992-20.565-20.992s-20.523 9.387-20.523 20.992v15.317h-141.653v-15.317c0-11.605-9.173-20.992-20.523-20.992s-20.523 9.387-20.523 20.992v15.317h-139.947v-15.317c0-11.605-9.472-20.992-20.821-20.992s-20.523 9.387-20.523 20.992v15.317h-142.336v-15.317c0-11.435-9.216-20.779-20.565-20.779s-20.523 9.387-20.523 20.779v15.317h-16c-11.349 0-20.523 9.344-20.523 20.992s9.173 20.992 20.523 20.992h15.957v144.896h-15.957c-11.349 0.043-20.523 9.429-20.523 21.035s9.173 20.992 20.523 20.992h15.957z" />
<glyph unicode="&#xe914;" d="M175.275 347.435c-3.285 0-6.571 1.323-8.917 4.011-4.48 5.077-4.139 12.885 0.811 17.493l143.147 133.547c4.949 4.565 12.587 4.267 17.067-0.811 4.48-5.035 4.139-12.843-0.811-17.493l-143.147-133.547c-2.347-2.176-5.248-3.2-8.149-3.2z" />
<glyph unicode="&#xe915;" d="M77.611 959.445v-186.368h925.867c11.392 0 20.523-9.387 20.523-21.035s-9.173-21.035-20.523-21.035h-10.411v-15.317c0-11.605-9.173-21.035-20.523-21.035s-20.523 9.387-20.523 21.035v15.36h-142.379v-15.317c0-11.605-9.216-21.035-20.523-21.035-11.392 0-20.565 9.387-20.565 21.035v15.317h-143.531v-15.317c0-11.605-9.216-21.035-20.565-21.035s-20.523 9.387-20.523 21.035v15.317h-141.653v-15.317c0-11.605-9.173-21.035-20.523-21.035s-20.523 9.387-20.523 21.035v15.317h-139.947v-15.317c0-11.605-9.472-21.035-20.821-21.035s-20.736 9.387-20.736 20.992v15.36h-142.123v-15.317c0-11.392-9.216-20.779-20.565-20.779s-20.523 9.387-20.523 20.779v15.317h-16c-11.349 0-20.523 9.387-20.523 20.992s9.173 21.035 20.523 21.035h15.957v144.896h-15.957c-11.349 0-20.523 9.387-20.523 21.035 0 11.605 9.173 20.992 20.523 20.992h15.957z" />
<glyph unicode="&#xe916;" d="M59.179 744.405c-2.688 0-5.419 0.939-7.68 2.816-5.163 4.395-5.845 12.203-1.621 17.451l95.915 118.443c4.267 5.291 11.861 6.016 17.024 1.664s5.845-12.16 1.621-17.408l-95.915-118.485c-2.389-2.944-5.845-4.48-9.344-4.48z" />
<glyph unicode="&#xe917;" d="M243.627 743.765c-3.627 0-7.253 1.664-9.643 4.864l-88.491 119.168c-4.053 5.419-2.987 13.184 2.304 17.323 5.333 4.181 12.928 3.115 16.939-2.347l88.491-119.168c4.053-5.419 2.987-13.184-2.304-17.323-2.176-1.707-4.736-2.517-7.296-2.517z" />
<glyph unicode="&#xe918;" d="M243.627 741.888c-2.731 0-5.461 0.939-7.723 2.859-5.12 4.352-5.845 12.16-1.579 17.408l95.915 118.443c4.267 5.291 11.861 6.016 17.024 1.664s5.845-12.16 1.579-17.408l-95.915-118.485c-2.389-2.944-5.803-4.48-9.301-4.48z" />
<glyph unicode="&#xe919;" d="M428.032 741.248c-3.627 0-7.211 1.707-9.643 4.864l-88.491 119.125c-4.011 5.419-2.987 13.184 2.304 17.323 5.333 4.139 12.928 3.115 16.939-2.347l88.533-119.125c4.053-5.461 2.987-13.227-2.304-17.323-2.219-1.707-4.779-2.517-7.339-2.517z" />
<glyph unicode="&#xe91a;" d="M414.933 746.283c-4.181 0-8.277 2.261-10.496 6.272-3.285 5.931-1.28 13.483 4.523 16.853l191.829 111.531c5.803 3.413 13.227 1.323 16.469-4.608 3.328-5.931 1.28-13.483-4.48-16.853l-191.872-111.573c-1.92-1.109-3.968-1.621-5.973-1.621z" />
<glyph unicode="&#xe91b;" d="M77.611 200.747v-186.368h925.867c11.392 0 20.523-9.387 20.523-20.992s-9.173-21.035-20.523-21.035h-10.411v-15.317c0-11.563-9.173-20.992-20.523-20.992s-20.523 9.429-20.523 20.992v15.317h-142.379v-15.317c0-11.563-9.216-20.992-20.523-20.992-11.392 0-20.565 9.429-20.565 20.992v15.317h-143.531v-15.317c0-11.563-9.216-20.992-20.565-20.992s-20.523 9.429-20.523 20.992v15.317h-141.653v-15.317c0-11.563-9.173-20.992-20.523-20.992s-20.523 9.429-20.523 20.992v15.317h-139.947v-15.317c-0.213-11.605-9.685-21.035-21.035-21.035s-20.523 9.429-20.523 20.992v15.317h-142.123v-15.317c0-11.392-9.216-20.736-20.565-20.736s-20.523 9.387-20.523 20.736v15.317h-16c-11.349 0.043-20.523 9.429-20.523 21.077s9.173 20.992 20.523 20.992h15.957v144.896h-15.957c-11.349 0-20.523 9.387-20.523 21.035s9.173 21.035 20.523 21.035h15.957z" />
<glyph unicode="&#xe91c;" d="M482.347-12.885h-121.173v136.619h121.173v-136.619zM385.365 11.819h72.789v87.168h-72.789v-87.168z" />
<glyph unicode="&#xe91d;" d="M236.629-12.885h-121.173v136.619h121.173v-136.619zM139.648 11.819h72.789v87.168h-72.789v-87.168z" />
<glyph unicode="&#xe91e;" d="M894.848-12.885h-226.688v136.619h226.688v-136.619zM692.395 11.819h178.261v87.168h-178.261v-87.168z" />
<glyph unicode="&#xe91f;" d="M721.493 480.939h-403.072c-6.699 0-12.075 5.504-12.075 12.373s5.376 12.373 12.075 12.373h403.072c6.699 0 12.075-5.504 12.075-12.373s-5.376-12.373-12.075-12.373z" />
<glyph unicode="&#xe920;" d="M853.589 353.493c-2.944 0-5.931 1.152-8.235 3.413l-132.096 127.403c-4.864 4.693-5.077 12.501-0.512 17.493 4.523 4.992 12.203 5.205 17.024 0.512l132.096-127.445c4.864-4.651 5.077-12.501 0.512-17.451-2.347-2.603-5.589-3.925-8.789-3.925z" />
<glyph unicode="&#xe921;" d="M968.363 857.813h-361.643c-6.656 0-12.075 5.504-12.075 12.373s5.419 12.373 12.075 12.373h361.643c6.656 0 12.075-5.547 12.075-12.373s-5.376-12.373-12.075-12.373z" />
<glyph unicode="&#xe922;" d="M956.587 960h-889.173c-37.12 0-67.413-29.013-67.413-64.853v-894.72c0-35.413 30.293-64.427 67.413-64.427h305.493v748.373c0 2.133 0 3.84-0.427 5.973h278.187v-703.573c0-1.28 0-2.987 0.427-4.309h-0.427v-46.464h305.92c37.12 0 67.413 29.013 67.413 64.427v894.72c0 35.84-30.293 64.853-67.413 64.853zM325.973 684.373v-701.867h-258.56c-10.24 0-18.773 8.107-18.773 17.92v690.347c2.56-0.427 5.12-0.427 7.68-0.427h270.080c-0.427-2.133-0.427-3.84-0.427-5.973zM975.36 0.427c0-9.771-8.533-17.92-18.773-17.92h-259.84c0.427 1.28 0.427 2.987 0.427 4.309v703.531h278.229v-689.92zM975.36 736.853h-919.040c-2.56 0-5.12 0-7.68-0.427v158.72c0 10.24 8.533 18.347 18.773 18.347h889.173c10.24 0 18.773-8.107 18.773-18.347v-158.293z" />
<glyph unicode="&#xe923;" d="M93.44 174.080h194.133v-43.947h-194.133v43.947z" />
<glyph unicode="&#xe924;" d="M93.44 367.787h194.133v-44.373h-194.133v44.373z" />
<glyph unicode="&#xe925;" d="M93.44 561.067h194.133v-43.947h-194.133v43.947z" />
<glyph unicode="&#xe926;" d="M742.4 174.080h194.133v-43.947h-194.133v43.947z" />
<glyph unicode="&#xe927;" d="M742.4 367.787h194.133v-44.373h-194.133v44.373z" />
<glyph unicode="&#xe928;" d="M742.4 561.067h194.133v-43.947h-194.133v43.947z" />
<glyph unicode="&#xe929;" d="M597.333 500.907v-558.080h-175.787v558.080h58.453v-61.867h61.013v61.867z" />
<glyph unicode="&#xe92a;" d="M568.747 543.573l-17.067-17.067-21.333 20.48v-97.28h-39.68v99.84l-23.467-23.040-17.067 17.067 58.88 58.88z" />
<glyph unicode="&#xe92b;" glyph-name="rows" d="M1024 501.333v394.24c0 35.413-30.293 64.427-67.413 64.427h-889.173c-37.12 0-67.413-29.013-67.413-64.427v-895.147c0-35.413 30.293-64.427 67.413-64.427h889.173c37.12 0 67.413 29.013 67.413 64.427v199.68h-48.64v-199.723c0-9.771-8.533-17.92-18.773-17.92h-259.413v217.643h-46.507v-217.643h-277.76v217.643h-46.933v-217.643h-258.56c-10.24 0-18.773 8.107-18.773 17.92v690.389c2.56-0.427 5.12-0.427 7.68-0.427h270.080c-0.427-2.133-0.427-3.84-0.427-5.973v-183.040h46.933v183.040c0 2.133 0 3.84-0.427 5.973h278.187v-189.013h46.507v189.013h278.229v-189.013h48.597zM56.32 737.28c-2.56 0-5.12 0-7.68-0.427v158.72c0 9.813 8.533 17.92 18.773 17.92h889.173c10.24 0 18.773-8.107 18.773-17.92v-158.293h-919.040zM93.355 174.251h194.261v-44.16h-194.261v44.16zM93.355 561.237h194.261v-44.16h-194.261v44.16zM423.808 174.251h194.261v-44.16h-194.261v44.16zM423.808 561.237h194.261v-44.16h-194.261v44.16zM742.443 174.251h194.261v-44.16h-194.261v44.16zM742.443 561.237h194.261v-44.16h-194.261v44.16zM1024 440.747v-176.213h-790.613v58.88h61.867v61.013h-61.867v56.32zM284.587 334.080h-99.84l23.040-23.467-17.067-17.067-58.88 58.88 58.88 59.307 17.067-17.067-20.48-20.907h97.28z" />
<glyph unicode="&#xe92c;" glyph-name="table" d="M956.416-64h-888.832c-37.248 0-67.584 28.971-67.584 64.597v894.805c0 35.627 30.336 64.597 67.584 64.597h888.832c37.248 0 67.584-28.971 67.584-64.597v-894.848c0-35.584-30.336-64.555-67.584-64.555zM67.584 913.408c-10.325 0-18.816-8.064-18.816-17.963v-894.848c0-9.899 8.491-18.005 18.816-18.005h888.832c10.325 0 18.773 8.064 18.773 18.005v894.805c0 9.899-8.448 17.963-18.773 17.963h-888.832zM985.515 690.475h-929.195c-21.291 0-38.528 10.453-38.528 23.339 0 12.843 17.237 23.296 38.528 23.296h929.195c21.248 0 38.485-10.453 38.485-23.296 0-12.885-17.237-23.339-38.485-23.339zM372.693 684.373v-710.059c0-16.213-10.453-29.397-23.339-29.397-12.843 0-23.296 13.227-23.296 29.397v710.059c0 16.256 10.453 29.397 23.296 29.397 12.885 0 23.339-13.141 23.339-29.397zM697.259 707.669v-710.016c0-16.256-10.411-29.397-23.339-29.397-12.843 0-23.253 13.184-23.253 29.397v710.016c0 16.256 10.411 29.397 23.253 29.397 12.928 0.043 23.339-13.141 23.339-29.397zM93.355 174.251h194.261v-44.16h-194.261v44.16zM93.355 367.744h194.261v-44.16h-194.261v44.16zM93.355 561.237h194.261v-44.16h-194.261v44.16zM423.808 174.251h194.261v-44.16h-194.261v44.16zM423.808 367.744h194.261v-44.16h-194.261v44.16zM423.808 561.237h194.261v-44.16h-194.261v44.16zM742.443 174.251h194.261v-44.16h-194.261v44.16zM742.443 367.744h194.261v-44.16h-194.261v44.16zM742.443 561.237h194.261v-44.16h-194.261v44.16z" />
<glyph unicode="&#xe92d;" glyph-name="pictograph" d="M620.8 12.8h83.2zM368 12.8h86.4zM1004.8 12.8c12.8 0 19.2-9.6 19.2-19.2 0-12.8-9.6-19.2-19.2-19.2h-928v-16c0-9.6-9.6-19.2-19.2-19.2-12.8 0-19.2 9.6-19.2 19.2v16h-19.2c-12.8 0-19.2 9.6-19.2 19.2 0 12.8 9.6 19.2 19.2 19.2h16v140.8h-16c-12.8 0-19.2 9.6-19.2 19.2s9.6 19.2 19.2 19.2h16v140.8h-16c-12.8 0-19.2 9.6-19.2 19.2 0 12.8 9.6 19.2 19.2 19.2h16v140.8h-16c-12.8 0-19.2 9.6-19.2 19.2s9.6 19.2 19.2 19.2h16v150.4h-16c-9.6 0-19.2 9.6-19.2 22.4s9.6 19.2 19.2 19.2h16v144h-16c-9.6 0-19.2 9.6-19.2 19.2 0 12.8 9.6 22.4 19.2 22.4h16v12.8c0 9.6 9.6 19.2 22.4 19.2s19.2-9.6 19.2-19.2v-928zM995.2 188.8c0-51.2-41.6-92.8-92.8-92.8s-92.8 41.6-92.8 92.8c0 51.2 92.8 147.2 92.8 147.2s92.8-92.8 92.8-147.2zM822.4 425.6l-288 291.2-54.4 51.2c-9.6 9.6-22.4 9.6-28.8 0s-9.6-22.4 0-28.8l28.8-25.6-275.2-275.2c-9.6-9.6-12.8-19.2-12.8-28.8s3.2-19.2 9.6-25.6l288-288c6.4-6.4 16-9.6 25.6-9.6s19.2 3.2 25.6 9.6l281.6 281.6c16 12.8 16 35.2 0 48zM508.8 681.6l281.6-281.6-553.6 9.6 272 272z" />
</font>
</defs>
</svg>
